- Альтависта (Real Records, RR-010 CD, 1999) flac - сплин

  • Исполнитель: сплин
  • Дата добавления: 2016-05-12 15:06:23
  • Размер трека: 47.81 Мб
  • Длительность: 52:13

Слушать онлайн


Cкачать MP3

Текст песни:

Exact Audio Copy V0.99 prebeta 4 from 23. January 2008

Отчёт EAC об извлечении, выполненном 7. мая 2010, 13:13

Сплин / Альтависта

Дисковод: Optiarc DVD RW AD-7170S Adapter: 0 ID: 0

Режим чтения : Достоверность
Использование точного потока : Да
Отключение кэша аудио : Да
Использование указателей C2 : Нет

Коррекция смещения при чтении : 48
Способность читать области Lead-in и Lead-out : Нет
Заполнение пропущенных сэмплов тишиной : Да
Удаление блоков с тишиной в начале и конце : Нет
При вычислениях CRC использовались нулевые сэмплы : Да
Интерфейс : Встроенный Win32-интерфейс для Win NT/2000

Выходной формат : Внутренние WAV-операции
Формат сэмплов : 44.100 Гц; 16 бит; стерео
Смещение при сжатии : 0

TOC извлечённого CD

Трек | Старт | Длительность | Начальный сектор | Конечный сектор
---------------------------------------------------------------------
1 | 0:00.00 | 6:06.10 | 0 | 27459
2 | 6:06.10 | 4:39.29 | 27460 | 48413
3 | 10:45.39 | 4:53.45 | 48414 | 70433
4 | 15:39.09 | 2:46.67 | 70434 | 82950
5 | 18:26.01 | 3:57.20 | 82951 | 100745
6 | 22:23.21 | 1:54.47 | 100746 | 109342
7 | 24:17.68 | 4:55.00 | 109343 | 131467
8 | 29:12.68 | 4:15.00 | 131468 | 150592
9 | 33:27.68 | 3:50.00 | 150593 | 167842
10 | 37:17.68 | 5:25.00 | 167843 | 192217
11 | 42:42.68 | 4:27.00 | 192218 | 212242
12 | 47:09.68 | 5:03.00 | 212243 | 234967

Характеристики диапазона извлечения и сообщения об ошибках

Выбранный диапазон

Имя файла D:\Download Музыка\Сплин - Альтависта.wav

Пиковый уровень 100.0 %
Качество диапазона 100.0 %
CRC теста C35853D6
CRC копии C35853D6
Копирование... OK

Ошибок не произошло


AccurateRip: сводка

Трек 1 точное извлечение (доверие 10) [ABF6158B]
Трек 2 точное извлечение (доверие 10) [379E0209]
Трек 3 точное извлечение (доверие 10) [629ED586]
Трек 4 точное извлечение (доверие 10) [23389E27]
Трек 5 точное извлечение (доверие 10) [F1196E88]
Трек 6 точное извлечение (доверие 9) [5C10B647]
Трек 7 точное извлечение (доверие 9) [F8B307D2]
Трек 8 точное извлечение (доверие 9) [D43E1D1F]
Трек 9 точное извлечение (доверие 9) [8ED35F4E]
Трек 10 точное извлечение (доверие 6) [6F565BEE]
Трек 11 точное извлечение (доверие 5) [CEE10387]
Трек 12 точное извлечение (доверие 4) [1BE65739]

Все треки извлечены точно

Конец отчёта

Видео к песне Сплин - Романс (Official video)