Аудио - Фонарь под глазом (Navigator Records, NR 0710 CDp, 2010) flac - Сплин

  • Исполнитель: Сплин
  • Дата добавления: 2016-05-23 13:24:23
  • Размер трека: 40.33 Мб
  • Длительность: 44:3

Слушать онлайн


Cкачать MP3

Текст песни:

Exact Audio Copy V0.99 prebeta 4 from 23. January 2008

Отчёт EAC об извлечении, выполненном 12. мая 2010, 12:09

Сплин / Фонарь под глазом

Дисковод: Optiarc DVD RW AD-7203S Adapter: 0 ID: 1

Режим чтения : Достоверность
Использование точного потока : Да
Отключение кэша аудио : Да
Использование указателей C2 : Нет

Коррекция смещения при чтении : 48
Способность читать области Lead-in и Lead-out : Нет
Заполнение пропущенных сэмплов тишиной : Да
Удаление блоков с тишиной в начале и конце : Нет
При вычислениях CRC использовались нулевые сэмплы : Да
Интерфейс : Установленный внешний ASPI-интерфейс

Выходной формат : Внутренние WAV-операции
Формат сэмплов : 44.100 Гц; 16 бит; стерео

TOC извлечённого CD

Трек | Старт | Длительность | Начальный сектор | Конечный сектор
---------------------------------------------------------------------
1 | 0:00.00 | 0:33.68 | 0 | 2542
2 | 0:33.68 | 3:51.02 | 2543 | 19869
3 | 4:24.70 | 2:42.60 | 19870 | 32079
4 | 7:07.55 | 4:42.08 | 32080 | 53237
5 | 11:49.63 | 5:14.55 | 53238 | 76842
6 | 17:04.43 | 4:19.20 | 76843 | 96287
7 | 21:23.63 | 3:23.25 | 96288 | 111537
8 | 24:47.13 | 4:46.22 | 111538 | 133009
9 | 29:33.35 | 3:38.65 | 133010 | 149424
10 | 33:12.25 | 4:38.30 | 149425 | 170304
11 | 37:50.55 | 4:44.28 | 170305 | 191632
12 | 42:35.08 | 1:27.45 | 191633 | 198202

Характеристики диапазона извлечения и сообщения об ошибках

Выбранный диапазон

Имя файла X:\Temps\Сплин\1997 - Фонарь под глазом (2010, Navigator Records, NR 0710 CDp)\Сплин - Фонарь под глазом.wav

Пиковый уровень 98.2 %
Качество диапазона 100.0 %
CRC теста B61813C0
CRC копии B61813C0
Копирование... OK

Ошибок не произошло


AccurateRip: сводка

Трек 1 нет в базе данных
Трек 2 нет в базе данных
Трек 3 нет в базе данных
Трек 4 нет в базе данных
Трек 5 нет в базе данных
Трек 6 нет в базе данных
Трек 7 нет в базе данных
Трек 8 нет в базе данных
Трек 9 нет в базе данных
Трек 10 нет в базе данных
Трек 11 нет в базе данных
Трек 12 нет в базе данных

Ни одного трека нет в базе AccurateRip

Конец отчёта

Видео к песне Сплин - Романс (Official video)