Мп3 - Знменатель (сборник для радио) (Real Records, RR-037-CD, 2000) flac - Сплин

  • Исполнитель: Сплин
  • Дата добавления: 2016-06-05 22:38:59
  • Размер трека: 53.33 Мб
  • Длительность: 58:14

Слушать онлайн


Cкачать MP3

Текст песни:

Exact Audio Copy V0.99 prebeta 5 from 4. May 2009

EAC extraction logfile from 8. October 2009, 20:10

Сплин / Знаменатель

Used drive : PIONEER DVD-RW DVR-217F Adapter: 3 ID: 0

Read mode : Secure
Utilize accurate stream : Yes
Defeat audio cache : Yes
Make use of C2 pointers : No

Read offset correction : 96
Overread into Lead-In and Lead-Out : No
Fill up missing offset samples with silence : Yes
Delete leading and trailing silent blocks : No
Null samples used in CRC calculations : Yes
Used interface : Native Win32 interface for Win NT & 2000

Used output format : Internal WAV Routines
Sample format : 44.100 Hz; 16 Bit; Stereo

TOC of the extracted CD

Track | Start | Length | Start sector | End sector
---------------------------------------------------------
1 | 0:00.00 | 4:39.00 | 0 | 20924
2 | 4:39.00 | 2:39.70 | 20925 | 32919
3 | 7:18.70 | 4:43.37 | 32920 | 54181
4 | 12:02.32 | 3:39.00 | 54182 | 70606
5 | 15:41.32 | 3:07.44 | 70607 | 84675
6 | 18:49.01 | 4:03.22 | 84676 | 102922
7 | 22:52.23 | 2:17.74 | 102923 | 113271
8 | 25:10.22 | 3:48.63 | 113272 | 130434
9 | 28:59.10 | 4:56.24 | 130435 | 152658
10 | 33:55.34 | 4:42.17 | 152659 | 173825
11 | 38:37.51 | 4:56.38 | 173826 | 196063
12 | 43:34.14 | 4:29.31 | 196064 | 216269
13 | 48:03.45 | 3:08.58 | 216270 | 230427
14 | 51:12.28 | 4:32.33 | 230428 | 250860
15 | 55:44.61 | 2:29.49 | 250861 | 262084

Range status and errors

Selected range

Filename D:\Audio\!eac\Сплин - 2000 - Знаменатель.wav

Peak level 100.0 %
Range quality 99.8 %
Copy CRC 5347CAAF
Copy OK

No errors occurred


AccurateRip summary

Track 1 cannot be verified as accurate (confidence 2) [798560B4], AccurateRip returned [986BFCDE]
Track 2 cannot be verified as accurate (confidence 2) [EF4AB483], AccurateRip returned [E401CE2D]
Track 3 accurately ripped (confidence 2) [A23303BD]
Track 4 accurately ripped (confidence 2) [73EAD86D]
Track 5 accurately ripped (confidence 2) [16F7F01A]
Track 6 accurately ripped (confidence 2) [F3B8C831]
Track 7 accurately ripped (confidence 2) [C1F4723C]
Track 8 accurately ripped (confidence 2) [FE5AEF27]
Track 9 accurately ripped (confidence 2) [67136155]
Track 10 accurately ripped (confidence 2) [8347EA03]
Track 11 accurately ripped (confidence 2) [9E39D7E9]
Track 12 accurately ripped (confidence 2) [A5D194A2]
Track 13 accurately ripped (confidence 2) [AA98B6C1]
Track 14 accurately ripped (confidence 2) [3BDC3F8F]
Track 15 accurately ripped (confidence 2) [49B64435]

13 track(s) accurately ripped
2 track(s) could not be verified as accurate

Some tracks could not be verified as accurate

End of status report

Видео к песне Сплин - Романс (Official video)